BadDream Index du Forum
BadDream Index du ForumFAQRechercherS’enregistrerConnexion

[HD] Lp Rip^Flac

 
Poster un nouveau sujet   Répondre au sujet    BadDream Index du Forum -> BadDream -> Conseil /aide
Sujet précédent :: Sujet suivant  
Auteur Message
validbetsy


Hors ligne

Inscrit le: 20 Mar 2016
Messages: 425
Localisation: Toulouse

MessagePosté le: Jeu 2 Juin - 09:33 (2016)    Sujet du message: [HD] Lp Rip^Flac Répondre en citant








Lp Rip Flac, a gentleman's guide

10cf746e54
I usually end up with 2 files: side a, side b. Peppers Lonely Hearts Club Band The Beatles 1967 . My ALAC files are on my main listening rig and Ipod & iphone (at 24 bit ALAC). In the past this Sound Card has been a little weird having to connect my microphone to my on board sound mic-jack as the creative drivers do not seem to pick it up when i connect it to the Sound Blaster Flexi-Jack. (13 items) CPUMotherboardGraphicsRAMi5 5500kMSI P67A-G43EVGA GTX 560Ti8Gb G SKill Ripjaws 1600Hard DriveOSMonitorPower2X500Gb WD Blue Raid 0Windows 7 Ultimate 64 Bit22" 1680x1050OCZ 700W ModularCaseMouseCorsair CX 700wLogitech G3View all hide details Reply Done for Now. psymonpsyko, May 24, 2012 #11 psymonpsyko Enthusiast Joined: May 21, 2012 Messages: 21 Likes Received: 1 Ok Turntable is an Ariston RD80 Lin Basik OV-x Forearm Goldring V1000 1012GX Cartridge. Reply post #7 of 32 12/16/10 at 4:24pm Golden Monkey Trader Feedback: +5 offline 1,974 Posts.

Center Carter coaxial transmission line center speaker Rear Carter NFM-1s Center backs Carter dual transmission line studio monitors MK I. But we thought doing it again, as we went along, might make us push the process further and spend more time on mastering rather than rush through it at the end. Joined 10/2010 Select All Posts By This User Right now I'm listening to The Human League's Dare albumfrom a wav file in iTunes. Overclock.net is powered by Wikia Gaming FAQSupportPrivacyToSDMCASite Map . Joined 5/2009 Location: Austria Select All Posts By This User Even with 16-bits you can capture what's on a vinyl, and more. Direction/management: Baby Sound Productions and Rush Management Barcode and Other Identifiers Barcode: 0 1241-41418-1 1 foobar2000 1.2.6 / Dynamic Range Meter 1.1.1 log date: 2013-09-01 19:20:12 ——————————————————————————– Analyzed: A Tribe Called Quest / The Low End Theory (Vinyl) ——————————————————————————– DR Peak RMS Duration Track ——————————————————————————– DR11 -0.66 dB -13.69 dB 3:54 01-Excursions DR11 -0.37 dB -13.21 dB 3:37 02-Buggin’ Out DR11 -1.51 dB -14.50 dB 2:13 03-Rap Promotor DR9 -2.65 dB -13.35 dB 3:38 04-Butter DR13 -2.20 dB -16.37 dB 3:58 05-Verses From The Abstract DR11 -2.53 dB -15.01 dB 3:53 06-Show Business DR10 -2.38 dB -13.96 dB 4:18 07-Vibes and Stuff DR12 -1.22 dB -14.71 dB 2:53 08-The Infamous Date Rape DR13 -2.11 dB -17.44 dB 3:36 09-Check The Rhime DR12 -2.35 dB -16.73 dB 2:59 10-Everything Is Fair DR11 -2.27 dB -15.16 dB 4:09 11-Jazz (We’ve Got) DR12 -2.79 dB -16.51 dB 2:13 12-Skypager DR12 -3.41 dB -17.71 dB 2:28 13-What DR11 -2.81 dB -14.72 dB 4:09 14-Scenario ——————————————————————————– Number of tracks: 14 Official DR value: DR11 Samplerate: 96000 Hz Channels: 2 Bits per sample: 24 Bitrate: 2885 kbps Codec: FLAC ================================================================================ Spin-Clean Record Cleaner Onzow Zerodust Stylus Cleaner Rega P2 Turntable on Vibrapod isolation feet with Rega Belt Upgrade, Acrylic Perspex Turntable Mat and RB251 tonearm Ortofon 2M Blue MM Cartridge Yaqin MS-22B Phono stage Tube Preamplifier with a pair of Mullard 12AX7 ECC83 Reissue Vacuum Tubes Monster Standard interlink 100 shielded audio interconnects by Monster Cable directly into M-Audio Audiophile 2496 Soundcard in my PC Captured with Adobe Audition CS6 as 24bit 96kHz WAV files Light Manual De-click Repair with Izotope RX Advanced Tracks split and converted to 24bit 96kHz FLAC Files in Audacity 2.0 and dithered and resampled to 16bit 44.1kHz Flac Files in Audacity 2.0 for the redbook version Tagged with Tag&Rename Software Not a great mix on this album in general in my opinion, kind of “sssss-ey at times,” but the CD is that way too, so I’m fairly certain it was a mastering issue. Some things deserve to be in 24/96 from vinyl, like masters that don't get released on CD. Jean Michel Jarre - Rendez-Vous (1986) [Vinyl Rip 24bit/96kHz] 14-03-2016, 23:07  maestro  2 238  Vinyl Rip Performer: Jean Michel JarreAlbum: Rendez-VousLabel: Polydor. Wharfedale never made a turntable and I have never heard of or seen a NAK turntable.

digital photographer 143Masterminds of Programmingchildren of the corn 20092 chainz trugirls run worldjak combat racingborn and raise john mayercolor sky waterthe bobby darin showStunts, Blunts, Hip Hop


Revenir en haut
Publicité






MessagePosté le: Jeu 2 Juin - 09:33 (2016)    Sujet du message: Publicité

PublicitéSupprimer les publicités ?
Revenir en haut
Montrer les messages depuis:   
Poster un nouveau sujet   Répondre au sujet    BadDream Index du Forum -> BadDream -> Conseil /aide Toutes les heures sont au format GMT + 1 Heure
Page 1 sur 1

 
Sauter vers:  

Index | Panneau d’administration | Creer un forum | Forum gratuit d’entraide | Annuaire des forums gratuits | Signaler une violation | Conditions générales d'utilisation
T h è m e _ r é a l i s é _ p a r _ la _ g u i l d e _ M i t s u g a